[60mbAnime.com] One Piece - 872 [480p][EngSub]

seeders: 6
leechers: 3
updated:
Added by 60mbAnime in Anime > Subbed

Download Fast Safe Anonymous
movies, software, shows...
  • Downloads: 248
  • Language: Japanese

Files

  • [60mbAnime.com] One Piece - 872 [480p][EngSub].mkv (205.7 MB)

Description



General
Complete name : [60mbAnime.com] One Piece - 872 [480p][EngSub].mkv
Format : Matroska
Format version : Version 4
File size : 206 MiB
Duration : 23 min 50 s
Overall bit rate : 1 206 kb/s
Encoded date : UTC 2010-02-22 21:41:29
Writing application : no_variable_data
Writing library : no_variable_data
Attachments : OpenSans-Semibold.ttf

Video
ID : 1
Format : AVC
Format/Info : Advanced Video Codec
Format profile : [email protected]
Format settings : CABAC / 6 Ref Frames
Format settings, CABAC : Yes
Format settings, RefFrames : 6 frames
Codec ID : V_MPEG4/ISO/AVC
Duration : 23 min 50 s
Bit rate : 1 106 kb/s
Width : 848 pixels
Height : 480 pixels
Display aspect ratio : 16:9
Frame rate mode : Constant
Frame rate : 23.976 (24000/1001) FPS
Color space : YUV
Chroma subsampling : 4:2:0
Bit depth : 8 bits
Scan type : Progressive
Bits/(Pixel*Frame) : 0.113
Stream size : 189 MiB (92%)
Writing library : x264 core 142
Encoding settings : cabac=1 / ref=6 / deblock=1:1:1 / analyse=0x1:0x111 / me=umh / subme=8 / psy=1 / psy_rd=0.40:0.00 / mixed_ref=1 / me_range=16 / chroma_me=1 / trellis=1 / 8x8dct=0 / cqm=0 / deadzone=21,11 / fast_pskip=1 / chroma_qp_offset=-2 / threads=6 / lookahead_threads=1 / sliced_threads=0 / nr=0 / decimate=1 / interlaced=0 / bluray_compat=0 / constrained_intra=0 / bframes=5 / b_pyramid=2 / b_adapt=2 / b_bias=0 / direct=3 / weightb=1 / open_gop=0 / weightp=2 / keyint=9999999 / keyint_min=5000000 / scenecut=0 / intra_refresh=0 / rc_lookahead=50 / rc=crf / mbtree=1 / crf=17.0 / qcomp=0.60 / qpmin=0 / qpmax=69 / qpstep=4 / vbv_maxrate=2000 / vbv_bufsize=3000 / crf_max=0.0 / nal_hrd=none / filler=0 / ip_ratio=1.40 / aq=1:0.60
Default : Yes
Forced : No

Audio
ID : 2
Format : AAC LC
Format/Info : Advanced Audio Codec Low Complexity
Codec ID : A_AAC-2
Duration : 23 min 50 s
Bit rate : 96.0 kb/s
Channel(s) : 2 channels
Channel layout : L R
Sampling rate : 44.1 kHz
Frame rate : 43.066 FPS (1024 SPF)
Compression mode : Lossy
Delay relative to video : -83 ms
Stream size : 16.4 MiB (8%)
Language : Japanese
Default : Yes
Forced : No

Text
ID : 3
Format : ASS
Codec ID : S_TEXT/ASS
Codec ID/Info : Advanced Sub Station Alpha
Duration : 23 min 31 s
Bit rate : 110 b/s
Count of elements : 322
Compression mode : Lossless
Stream size : 19.1 KiB (0%)
Language : English
Default : Yes
Forced : No



Download torrent
205.7 MB
seeders:6
leechers:3
[60mbAnime.com] One Piece - 872 [480p][EngSub]


Trackers

tracker name
http://anidex.moe:6969/announce
µTorrent compatible trackers list

Download torrent
205.7 MB
seeders:6
leechers:3
[60mbAnime.com] One Piece - 872 [480p][EngSub]


Torrent hash: 49C00BB4DFA6D312555FE6467633AA22FC40F3B6
Akame Ga Kill | Scarica APK | Mood Messenger - SMS MMS